#TITLE:Bad Boy;
#SUBTITLE:;
#ARTIST:孙丹菲;
#TITLETRANSLIT:;
#SUBTITLETRANSLIT:;
#ARTISTTRANSLIT:;
#CREDIT:;
#BANNER:Bad Boy_logo.jpg;
#BACKGROUND:Bad Boy_bg.jpg;
#LYRICSPATH:;
#CDTITLE:Lan.png;
#MUSIC:Bad Boy.mp3;
#OFFSET:-0.040;
#SAMPLESTART:100.000;
#SAMPLELENGTH:12.000;
#SELECTABLE:YES;
#BPMS:0.000=130.010;
#STOPS:;
#BGCHANGES:;
// cache tags:
#FIRSTBEAT:4.000;
#LASTBEAT:299.000;
#SONGFILENAME:Songs/lan sky/Bad Boy/Bad Boy.sm;
#HASMUSIC:1;
#HASBANNER:1;
#MUSICLENGTH:140.059;
// end cache tags

//---------------dance-single - sky----------------
#NOTES:
     dance-single:
     sky:
     Hard:
     9:
     0.851,0.961,1.000,0.071,0.075,591.000,194.000,10.000,0.000,71.000:

0000
0000
0000
0000
,
0010
0001
0010
0001
0010
0001
0100
1000
,
0100
0010
0100
0010
0100
0010
0001
1000
,
0100
1000
0100
1000
0100
1000
0010
0001
,
0010
0100
0010
0100
0010
0100
1000
0001
,
0100
0010
0100
0010
0100
0010
0001
1000
,
0100
0001
0100
0001
0100
0001
0010
1000
,
0001
0010
0001
0010
0001
0010
0100
1000
,
0010
0001
0010
0001
0010
0001
0100
1000
,
0011
0100
1010
0100
0011
0010
1100
0001
,
1010
0100
1100
0001
0110
1000
0101
0010
,
1100
0001
0110
1000
0101
0010
1100
0010
,
0101
1000
1100
0001
1010
0100
1100
0001
,
1010
0100
1100
0001
0011
0100
1010
0100
,
0011
0100
1010
0100
0011
0100
0110
1000
,
0110
0001
1010
0100
0110
1000
0101
0001
,
0220
0000
0000
0000
,
1331
0100
1100
0010
0101
0010
1100
0010
,
0110
0001
1010
0100
1100
0010
0110
0001
,
1010
0100
1100
0010
0011
0100
1100
0010
,
0110
0001
1001
0100
1100
0010
0101
1000
,
0110
0010
1010
0100
1100
0001
0110
0010
,
1010
0100
1100
0010
0101
0010
0101
0001
,
1110
0001
1010
0001
1110
0001
1010
0001
,
1110
0001
1110
0001
1110
0001
1110
0001
,
2210
0001
0010
0001
0010
0010
0001
0010
,
0001
0001
0010
0001
3310
0100
0011
0100
,
1010
0001
0110
1000
0101
0001
1010
0100
,
1100
0001
1010
0100
1001
0010
0101
0010
,
1100
0010
0110
0001
0101
0010
1100
0100
,
0101
0010
1100
0010
1100
0010
0101
1000
,
0110
0001
1010
0100
1010
0001
0110
1000
,
0011
0001
0001
0001
0110
0010
0010
0010
1100
0100
0100
0100
1010
1000
1000
1000
,
0011
0100
1010
0100
0011
1000
0110
0001
,
1110
0001
1010
0100
1100
0010
0101
0010
,
0111
1000
1010
0100
1100
0010
0101
0010
,
1110
0001
0110
1000
0101
0010
1100
0001
,
0111
1000
0110
1000
0101
0010
1100
1000
,
0111
1000
0011
0100
1010
0100
0110
0100
,
1011
0100
1100
0010
0101
0010
1100
0001
,
0111
1000
0111
1000
0111
1000
0111
1000
,
1220
0000
0001
0000
1000
0001
0001
1000
,
1000
1000
0331
1000
0110
0001
1010
0100
,
1011
0100
1100
0010
0110
0001
1001
0100
,
1011
0100
0011
1000
0110
0001
0110
0100
,
1011
0010
1100
0010
0101
0010
1100
0100
,
1011
0010
1100
0010
0101
1000
0110
0001
,
1101
0010
0110
0010
1101
0100
1010
0100
,
0111
1000
0111
1000
0111
1000
1110
0000
,
0001
0001
0000
1000
0100
0000
1000
0000
0100
0100
0000
0010
0010
0000
1000
1000
,
1000
0010
0100
0010
0001
0100
1000
0010
,
0100
0001
1000
0010
0100
0001
0010
1000
,
0100
0001
0010
1000
0100
0001
0010
1000
,
0100
0010
0100
0001
0010
1000
0000
0000
,
0100
0010
1000
0100
0100
0001
0010
1000
,
0100
1000
0010
0100
0001
0010
0100
1000
,
0010
0100
0001
0010
1000
0010
0100
0001
,
1100
0010
1100
0001
1100
0010
1100
0001
,
2200
0000
0000
0000
,
3311
0100
0110
0001
1010
0100
1100
0100
,
1011
0010
1100
0010
0101
0010
1100
0001
,
1110
0100
1100
0010
0101
0010
1100
1000
,
0111
1000
1010
0100
1100
0001
0110
0001
,
1110
0100
1100
0010
0101
0001
0110
0010
,
1101
0100
1010
0100
1100
0010
0101
0001
,
1110
0001
0110
1000
0101
0010
1100
1000
,
0111
0001
0001
0001
0111
0010
0010
0010
0111
0100
0100
0100
0111
1000
1000
1000
,
2210
0001
0010
0010
0001
0001
0010
0001
,
0011
0010
3301
0100
0010
0100
0010
0001
,
1100
0010
0100
0001
0010
1000
0100
1000
,
0011
0100
0010
1000
0100
0010
0100
0010
,
0101
1000
0100
0001
0010
0100
0010
0001
,
1100
0010
0100
0001
0010
1000
0010
1000
,
0101
0010
0100
1000
0010
0100
0001
1000
,
0110
0001
0110
0001
0110
0001
0110
0000
;
